Skip to main content

Camper Van Beethoven Live at Nightshift Cafe on 1989-07-30




Disc 1 (51:07.53)
01. tuning
02. Hippies & Cops
03. Fayettenam
04. Evil Filthy Preacher
05. Bo Diddley
06. Ollie's Playhouse
07. Luxury Liner
08. Ring of Fire
09. Let's Go Back In Time - Voodoo Vengeance - They Can Make It Rain Bombs
10. Monk Medley
11. (do you see how you hurt me baby?)

Disc 2 (43:43.56)
12. rake intro
13. Rake jam
14. Careful With That Axe, Eugene
15. Zappa Medley (Absolutely Free, Let's Make The Water Turn Black) - Psychedelic Basement
16. Country Music For Good People Like Y'all
17. Eight Miles High


Collection CamperVanBeethoven
Band/Artist Camper Van Beethoven
Venue Nightshift Cafe
Location Naugatuck, CT, USSA

Source 3 Radio Shack highball mics > some cheap old home cassette deck > Maxell XLII cassette.
Lineage AudM > cdr > EAC > TLH > Flac
Taped by Malcolm Tent
Transferred by Malcolm Tent

Notes

Camper Van Chadbourne

Recording made by Malcolm Tent on the MT Field Unit

CreatureD says: Thanks to Malcolm Tent for this master and the trades.
This is an excellent(ex-) audience stereo recording!

SHNTOOL:
length expanded size cdr WAVE problems fmt ratio filename
0:42.30 7479404 B --- -- ---xx CamperVanChadbourne1989-07-30d1t01.flac
4:01.51 42632396 B --- -- ---xx CamperVanChadbourne1989-07-30d1t02.flac
3:58.52 42105548 B --- -- ---xx CamperVanChadbourne1989-07-30d1t03.flac
4:07.31 43643756 B --- -- ---xx CamperVanChadbourne1989-07-30d1t04.flac
3:39.69 38793932 B --- -- ---xx CamperVanChadbourne1989-07-30d1t05.flac
2:49.53 29936300 B --- -- ---xx CamperVanChadbourne1989-07-30d1t06.flac
3:39.04 38641052 B --- -- ---xx CamperVanChadbourne1989-07-30d1t07.flac
3:30.48 37156940 B --- -- ---xx CamperVanChadbourne1989-07-30d1t08.flac
15:45.06 166712156 B --- -- ---xx CamperVanChadbourne1989-07-30d1t09.flac
4:09.73 44095340 B --- -- ---xx CamperVanChadbourne1989-07-30d1t10.flac
4:43.11 49947116 B --- -- ---xx CamperVanChadbourne1989-07-30d1t11.flac
0:44.18 7803980 B --- -- ---xx CamperVanChadbourne1989-07-30d2t01.flac
5:47.28 61276700 B --- -- ---xx CamperVanChadbourne1989-07-30d2t02.flac
6:01.07 63696908 B --- -- ---xx CamperVanChadbourne1989-07-30d2t03.flac
8:11.72 86781788 B --- -- ---xx CamperVanChadbourne1989-07-30d2t04.flac
13:02.72 138114188 B --- -- ---xx CamperVanChadbourne1989-07-30d2t05.flac
9:56.09 105155612 B --- -- ---xx CamperVanChadbourne1989-07-30d2t06.flac
94:51.34 1003973116 B 0.5943 (17 files)

Reviews

Reviewer: morst - - April 30, 2014
Subject: This is CVC - Camper Van Chadbourne
Members of CVB + EC + CVC!

It'll be cookoo, it'll be wacky, it'll be covert...
in Ollie's playhouse!!
Reviewer: JimBeamA - - August 1, 2012
Subject: This is not Camper Van Beethoven
Not a bad recording. FYI it is not a recording of the band Camper Van Beethoven. This guy has collaborated with CVB band members on his CDs.
DOWNLOAD OPTIONS
Uploaded by
morst
on 2/2/2009
Views
846
Favorites
2
Reviews
2
PEOPLE ALSO FOUND
Camper Van Beethoven
by Camper Van Beethoven
9,936
0
1
( 1 reviews )
Source: Sony ECM-717 > Sharp MD-MT190MD
Camper Van Beethoven
by Camper Van Beethoven
2,674
0
1
( 1 reviews )
Source: Sony ECM-717 > Sharp Minidisc MD-MT190
Camper Van Beethoven
by Camper Van Beethoven
344
0
0
Source: audience > Sony WM-D6c > MCAS
Camper Van Beethoven
by Camper Van Beethoven
145
0
0
Source: soundboard > Sony D5 > TDK MA90 cassette master tape
Camper Van Beethoven
by Camper Van Beethoven
407
0
0
Camper Van Beethoven
by Camper Van Beethoven
1,831
1
0
Source: SBD
Camper Van Beethoven
by Camper Van Beethoven
690
2
0
Source: KM140's > MV100 > PCM-M10 (EMTEN) > WAV @2448
Camper Van Beethoven
by Camper Van Beethoven
331
1
0
Source: DPA 4061 mics upstairs > Sony PCM-D50 > WAV @48/24
Camper Van Beethoven
by Camper Van Beethoven
4,770
1
2
( 2 reviews )
Source: DSM6 -> PACLC -> M1
Camper Van Beethoven
by Camper Van Beethoven
931
2
1
( 1 reviews )
Source: AKG CB568D Hybrid Shotguns (48v) > Monster Studio Grade Cables > Zoom H4